7 Cajas [DVD-Rip/Lat][Thriller][2010][DD][UL]

Descargar 7 Cajas [DVD-Rip/Lat][Thriller][2010][DD][UL] Gratis, torrent ver online, español latino, castellano, subtitulos, todos los capitulos episodios, full HD, rmvb, descarga directa, putlocker descarga directa, torrent, rapidshare, mediafire, MEGA.



Título Original: 7 cajas
Director: Juan Carlos Maneglia, Tana Schémbori
Duración: 01:40:00
Estreno o Año: 01/05/2013
Género: Thriller | Drama | Acción
País: Paraguay
Distribuidora/Productora: Maneglia Schémbori Realizadores, Synchro Image
Reparto: Lali González, Celso Franco, Tito Jara, Nelly Dávalos, Nicolás García, Junior Rodríguez Rebollo, Roberto Cardoso, Luis Gutiérrez, Atil Closs, Liliana Álvarez
Sinopsis: La historia transcurre en el mes de abril del año 2005. Víctor, un carretillero de 17 años que trabaja en el famoso Mercado 4 de la ciudad de Asunción, se distrae imaginando ser famoso y admirado en la televisión de un puesto de ventas de DVD en pleno Mercado 4, lo que causa la perdida de un cliente a manos de otro carretillero que se le adelantó. El mundo del mercado es hostil, competitivo y hay miles como él esperando llevar las compras de los clientes a cambio de una pequeña remuneración. Victor entiende que necesita moverse para conseguir algo de dinero ese día. Entonces recibe una propuesta algo inusual, transportar 7 cajas de las que desconoce su contenido, a cambio de la mitad de un billete rasgado de 100 dólares. La otra mitad del dinero se le entregaría cuando éste termine su trabajo. Con un teléfono celular en préstamo, que utiliza el contratista para ir marcando por cual calle trasladarse, Víctor emprende el viaje. Cruzar las 8 manzanas que cubre el mercado parecía fácil pero las cosas se le van complicando: Le roban una caja, pierde el teléfono celular y la policía rodea el mercado buscando algo que él ignora por completo. A esto se suma un grupo de carretilleros dispuestos a escoltar las cajas por una suma ínfima de las ganancias. Sin saber, Víctor y sus perseguidores se van involucrando en un crimen del que no saben nada: la causa, la víctima y el victimario. Se hace de noche y Víctor entiende que ahora es cómplice de algo demasiado delicado y peligroso. La necesidad entonces le obliga a correr, a gritar, o simplemente a callar.
Premios:
- 2012: Premios Goya: Nominada a Mejor película hispanoamericana
- 2012: Festival de San Sebastián: Premio de la Juventud



Calidad: DVD-Rip
Idioma: Latino Mic (Mp3) con Subtítulos en español
Tamaño: AVI 1,50 Gb
Servidor: Uploaded.to
Spoiler
General
Complete name : 7.C.a.j.a.s.Lat.DVD-Rip[jc].avi
Format : AVI
Format/Info : Audio Video Interleave
Format profile : OpenDML
File size : 1.50 GiB
Duration : 1h 40mn
Overall bit rate : 2 131 Kbps
Writing application : MEncoder SVN-r33883(20110719-gcc4.5.2)
Writing library : MPlayer
Video
ID : 0
Format : MPEG-4 Visual
Format profile : Advanced Simple@L5
Format settings, BVOP : 2
Format settings, QPel : No
Format settings, GMC : No warppoints
Format settings, Matrix : Default (H.263)
Codec ID : XVID
Codec ID/Hint : XviD
Duration : 1h 40mn
Bit rate : 1 988 Kbps
Width : 768 pixels
Height : 576 pixels
Display aspect ratio : 4:3
Frame rate : 29.970 fps
Color space : YUV
Chroma subsampling : 4:2:0
Bit depth : 8 bits
Scan type : Progressive
Compression mode : Lossy
Bits/(Pixel*Frame) : 0.150
Stream size : 1.40 GiB (93%)
Writing library : XviD 1.2.1 (UTC 2008-12-04)
Audio
ID : 1
Format : MPEG Audio
Format version : Version 1
Format profile : Layer 3
Mode : Joint stereo
Mode extension : MS Stereo
Codec ID : 55
Codec ID/Hint : MP3
Duration : 1h 40mn
Bit rate mode : Constant
Bit rate : 128 Kbps
Channel(s) : 2 channels
Sampling rate : 44.1 KHz
Compression mode : Lossy
Delay relative to video : 33ms
Stream size : 92.4 MiB (6%)
Alignment : Aligned on interleaves
Interleave, duration : 26 ms (0.78 video frame)
Interleave, preload duration : 522 ms
Writing library : LAME3.98.4
Descargar 1 link desde: Mediafire – Putlocker – Rapidshare – Hostgator

Entradas Relacionadas


Publicidad

Deja tu comentario!

0 comentarios:

Publicar un comentario en la entrada